#TITLE:Cynthia;
#SUBTITLE:;
#ARTIST:MaxXx65535;
#TITLETRANSLIT:;
#SUBTITLETRANSLIT:;
#ARTISTTRANSLIT:;
#CREDIT:;
#BANNER:cynthia-bn.png;
#BACKGROUND:cynthia-bg.png;
#LYRICSPATH:;
#CDTITLE:;
#MUSIC:65535_cynthia.mp3;
#OFFSET:-0.080;
#SAMPLESTART:30.000;
#SAMPLELENGTH:12.000;
#SELECTABLE:YES;
#BPMS:0.000=187.000,240.000=187.000;
#STOPS:;
#BGCHANGES:;
// cache tags:
#FIRSTBEAT:0.000;
#LASTBEAT:396.000;
#SONGFILENAME:Songs/Music V.I.P ^_^/Cynthia/Cynthia.sm;
#HASMUSIC:1;
#HASBANNER:1;
#MUSICLENGTH:130.398;
// end cache tags

//---------------dance-single - ----------------
#NOTES:
     dance-single:
     :
     Challenge:
     15:
     1.000,1.000,1.000,0.483,1.000,1100.000,367.000,63.000,0.000,52.000:
2000
0000
0000
0000
,
0000
0000
0000
0000
3010
0001
1000
1000
,
0100
0100
0010
0001
1000
1000
0100
0100
,
0010
0001
1000
1000
0100
0100
0010
0001
,
1000
1000
0100
0100
0010
0001
1000
1000
,
0100
0100
0010
0001
1000
1000
0100
0100
,
1011
0001
1000
1101
0010
0101
1010
1001
,
0110
0101
1010
1001
1011
0001
1000
1101
,
0100
0101
1010
1001
0110
0101
1010
1001
,
1110
0001
1000
0111
0100
1001
0110
0011
,
1100
0110
1001
0011
1011
0001
1000
0111
,
0100
1010
1100
0110
0011
1001
0110
0101
,
1011
0001
1000
1101
0100
0101
1010
0011
,
0110
1001
0110
0011
1011
0001
1000
1110
,
0100
0011
1100
0101
1010
1001
0110
0011
,
0111
0001
1000
1011
0100
0011
0101
1010
,
0011
1100
0110
1010
1011
0001
1000
1101
,
0010
0101
1010
1100
0110
0011
1010
1001
,
0000
0000
0000
0000
0000
0000
0000
0000
0000
0000
0000
0000
1001
0010
0100
1000
,
0100
0000
1010
0001
0010
0100
0011
0000
1001
0010
0101
1000
0110
0000
1001
0010
,
0101
1000
0110
0000
1001
0010
0100
0001
1000
0000
0011
0100
0010
1000
0110
0000
,
1001
0010
0101
1000
0110
0000
0101
1000
0011
0100
1001
0000
1001
0100
0010
0001
,
0010
0000
1001
0010
0100
1000
0110
0000
1001
0010
0101
0010
0101
0000
1010
0100
,
0011
0100
1001
0000
0101
1000
0001
1000
0001
0000
1010
0001
1000
0001
1100
0000
,
1001
0010
1100
0010
1001
0000
1100
0010
0101
0010
1001
0000
1011
0100
0001
0100
,
1000
0000
0101
0010
1000
0010
0101
0000
1001
0100
1010
0001
0110
0000
0101
1000
,
0101
0010
1001
0000
0011
0100
1000
0100
0010
0000
1001
0010
0100
1000
0110
0000
,
0110
0001
1010
0100
1001
0000
0101
0010
1001
0010
0101
0000
1011
0100
0010
0001
,
0010
0000
0101
1000
0100
0010
1001
0000
0011
0100
1010
0100
1001
0000
1001
0010
,
0101
1000
0110
0000
1010
0001
0010
0100
1000
0000
1100
0010
0001
0010
1100
0000
,
1001
0100
1010
0001
0110
1000
0101
1000
0101
0010
1001
0000
1101
0010
0001
0010
,
0100
0000
1000
0100
0010
0001
0010
0000
1000
0001
0100
0010
0001
0000
0010
0100
,
0001
0000
1000
0000
0100
0000
0000
0000
0001
0010
0100
1000
0100
0010
0001
0010
0100
0000
1000
0000
0100
0000
0000
0000
0001
0000
0010
0000
0100
0000
1000
0000
,
0002
1000
0000
1000
0000
1000
0000
1000
0003
0100
0010
0100
1011
0000
0100
0010
,
0100
0010
1000
0001
1010
0100
0010
0001
,
1000
0001
1111
0000
0000
1101
0000
1001
,
0010
1000
0100
0011
0100
1001
1101
0000
,
1011
0000
0000
0000
0000
0000
0000
0000
0000
0000
0000
0000
1110
0000
0000
0000
0000
0000
0000
0010
1101
0000
0000
0000
0000
0000
0000
0000
1011
0000
0000
0000
,
0000
0111
1111
0000
1101
0000
0000
0000
,
1101
0000
0010
0000
0100
0000
1000
0000
1011
0000
0100
0000
0011
0000
1100
0010
,
0101
0000
0010
0100
0000
1000
0011
0000
0011
0000
1001
0000
0110
0000
0001
1000
,
0000
0010
1100
1100
0011
0000
0011
0000
1001
0000
0010
0100
0000
1000
0010
0001
,
1100
1100
1100
0000
1001
0000
0010
0100
0000
0001
1000
0000
0101
0000
0101
0000
,
1001
0000
0010
1000
0001
1000
0100
0011
0011
0011
0011
0100
1001
0000
0010
0100
,
0000
0010
1001
0110
1001
0100
0010
0001
0010
1000
0100
0010
0001
0100
0010
0001
,
1000
0001
0100
0001
0010
0001
1000
0001
0010
1000
0010
0100
1011
0100
0010
0001
,
0010
0000
0101
1000
0100
0010
1001
0000
0011
0100
1010
0100
0011
0000
1001
0010
,
0101
1000
0110
0000
1010
0001
0010
0100
1000
0000
0101
0010
0001
0010
1100
0000
,
1001
0100
1010
0001
0110
0000
0101
1000
0101
0010
1001
0000
1011
0100
1000
0100
,
0010
0000
1001
0010
0100
1000
0011
0000
0110
0001
1010
0100
1001
0000
1100
0010
,
0101
0010
1100
0000
1001
0100
0010
0001
0010
0000
0101
1000
0100
0010
1001
0000
,
0011
0100
1010
0100
0011
1000
0101
0010
0101
1000
0110
0001
1110
0001
0010
0100
,
1000
0000
0110
1000
0001
0010
0101
0000
1010
0100
1010
0001
0110
0000
0101
1000
,
0101
0010
1001
0000
0011
0100
1000
0100
0010
0000
1001
0010
0100
1000
0101
0000
,
1010
0001
1010
0100
1001
0000
0101
0010
1001
0010
1100
0000
1011
0100
0010
0001
,
0010
0000
0101
1000
0100
0010
1001
0000
0011
0100
1010
0100
0011
0000
1001
0010
,
0101
1000
0110
0000
1010
0001
0010
0100
1000
0000
0101
0010
0001
0010
1100
0000
,
1001
0100
1010
0001
1010
0100
1001
0100
1010
0001
1010
0100
1000
0001
1000
0001
,
1000
0001
1000
0001
1000
0001
1000
0001
1000
0001
1000
0001
1000
0001
1000
0001
,
1000
0001
1000
0001
1000
0001
1000
0001
1000
0000
0000
0000
0000
0000
0000
0000
,
2002
0000
0000
3003
,
0000
0000
0000
0000
1111
0000
0000
0000
2011
3100
0010
0001
1000
0010
0200
0301
,
1000
0100
0020
0031
2000
3010
0100
0001
2000
3100
0010
0001
2000
3010
0100
0001
,
2000
3100
0010
0001
2000
3100
0010
0001
0200
0310
1000
0100
0020
0031
0200
0310
,
2000
3100
0020
0031
0200
0310
2000
3100
2020
3031
0010
0100
2000
3100
0010
0001
,
2000
3100
0010
0001
2000
3010
0100
0001
2000
3010
0100
0001
0020
0130
1000
0001
,
2000
3010
0100
0001
0020
0130
1000
0001
0200
0310
1000
0001
0020
0130
1000
0010
,
0200
0301
1000
0100
0020
0031
0100
0010
2002
3103
0010
0001
0020
0031
1000
0100
,
0020
0031
0010
0001
2000
3010
0100
0001
0020
0031
1000
0010
0200
0301
0010
0001
,
2000
3010
0001
0010
2000
3100
1000
0010
0002
0013
1000
0001
0020
0031
0100
0010
,
0200
0301
1000
0001
0200
0310
1000
0001
2020
3031
0010
0100
1000
0001
0100
0020
,
1030
0010
0200
0301
2000
3100
0010
0001
0100
0010
2000
3100
0010
0001
0020
0130
,
2000
3100
0010
0001
0020
0130
1000
0001
0200
0310
1000
0001
0020
0130
1000
0100
,
0020
0031
0100
0010
2000
3010
0100
0001
2020
3031
0010
0100
1000
0000
0101
0010
,
0001
0010
0101
0000
1001
0100
1010
0001
0110
0000
0110
1000
0101
0010
1001
0000
,
0011
0100
1000
0100
0010
0000
1001
0010
0100
1000
0101
0000
0110
0001
1010
0100
,
1001
0000
1100
0010
0101
0010
1100
0000
1011
0100
0010
0001
0010
0000
0101
1000
,
0100
0010
1001
0000
0011
0100
1010
0100
0011
0000
1001
0010
0101
1000
0110
0000
,
1010
0001
0010
0100
1000
0000
0101
0010
0001
0010
1100
0000
1001
0100
1010
0001
,
0110
0001
0110
1000
0101
0010
1001
0010
1101
0010
0100
1000
0100
0000
1010
0001
,
0010
0100
1001
0000
1100
0010
0101
0010
1100
0000
1001
0100
1010
0001
0110
0000
,
0101
1000
0100
0010
0001
0000
1010
0100
1000
0100
0011
0000
1001
0010
0101
1000
,
0110
0000
1010
0001
1010
0100
1001
0000
1101
0010
0001
0010
0100
0000
1001
0100
,
0010
0001
1010
0000
0110
1000
0101
0010
1001
0000
0011
0100
1010
0100
0011
0000
,
1001
0010
0100
1000
0100
0000
1010
0001
0010
0100
1001
0000
1100
0010
0101
0010
,
0101
1000
0011
0100
1001
0100
0011
1000
0111
1000
0010
0000
1100
0001
0010
0000
,
1001
0100
1000
0000
1001
0100
0010
0100
0011
1000
0010
0100
1001
0010
0100
1000
,
0101
0010
0001
0100
0011
1000
0001
0010
0101
1000
0010
0100
1010
0100
0010
0100
,
1001
0010
0100
1000
0011
0100
0001
0010
1100
0000
0010
0100
1001
0000
0010
0001
,
1100
0000
0010
0100
1011
0100
0001
1000
0010
0100
0001
0010
1101
0010
0000
0010
,
1101
0010
0100
1000
0011
0100
0010
0100
1001
0010
0001
0010
1101
0010
1000
0001
,
0100
0010
0100
0001
1010
0100
0000
0100
1001
0000
0001
1000
0011
0000
0100
0010
,
1100
0000
0010
0100
1011
0000
0000
0000
0000
0000
0000
0000
1010
0000
0000
0000
,
2202
0000
0000
0000
,
0000
0000
0000
0000
,
0000
0000
0000
0000
,
0000
0000
0000
0000
,
0000
0000
0000
0000
,
0000
0000
0000
0000
,
3303
0000
0000
0000
;
